Скачать через торрент Инквизитор Серии: 1-12 из 12 Фильм бесплатно в хорошем качестве torrent

Скачивайте на UnionPeer.org фильмы через торрент без регистрации. Новинки кино в хорошем качестве через торрент. На UnionPeer.org можно скачать через торрент фильмы 2014 и 2015 годов. Самые новые фильмы.

Скачать торрент Инквизитор Серии: 1-12 из 12 бесплатно через .torrent фильм мультфильм сериал

Статистика раздачи
Размер:  7.7 GB   |    Зарегистрирован:  1 месяц 9 дней   |    .torrent скачан:  47 раз   |   
Раздают:  1  
   
загрузка...
 
Автор Сообщение

erzsebet

avatar erzsebet


Инквизитор
Год выпуска: 2014
Производство: компания "Кинотелефильм", компания "Морозфильм"
Жанр: детектив, триллер
Продолжительность: ~00:50:00 серия

Режиссёр: Юрий Мороз
В ролях: Виктория Исакова, Александр Лыков, Андрей Смоляков, Константин Лавроненко, Виктор Вержбицкий, Дарья Мороз, Никита Тезин, Николай Козак, Борис Каморзин, Надежда Маркина, Виталий Коваленко, Алексей Вертков, Дмитрий Астрахан, Роман Мадянов, Клавдия Коршунова, Александр Голубев, Анна Уколова, Виталий Коваленко, Арнис Лицитис
Описание: Провинциальный городок на западной границе России потрясает зловещая череда убийств. Некто с жестокостью средневекового инквизитора отправляет на тот свет влиятельных людей, оставляя загадочные послания на латыни. Кто следующий — Инквизитор подсказывает сам, но шанса на спасение не дает. Кажется, что Инквизитор может предугадать каждый шаг следствия, однако петербургская сыщица Наталья Серебрянская готова принять брошенный вызов…
Реклама: Нет

Сэмпл: http://multi-up.com/1219641

Качество: WEBRip 720p
Формат: MKV
Видео кодек: H.264
Аудио кодек: AC3
Видео: MPEG4 Video (H264) 1280x720 25fps ~1800 kbps 0.074 bit/pixel
Аудио: Dolby AC3 48000Hz stereo 192kbps
General
Unique ID : 221641717244630317441595753203464545414 (0xA6BEA45B3496436386AD9CA86FB22486)
Complete name : D:\Downloads\Инквизитор (720p)\1-ая серия.mkv
Format : Matroska
Format version : Version 4 / Version 2
File size : 724 MiB
Duration : 52 min 57 s
Overall bit rate mode : Variable
Overall bit rate : 1 910 kb/s
Encoded date : UTC 2019-01-06 23:12:20
Writing application : mkvmerge v15.0.0 ('Duel with the Devil') 64-bit
Writing library : libebml v1.3.5 + libmatroska v1.4.5

Video
ID : 1
Format : AVC
Format/Info : Advanced Video Codec
Format profile : High@L3.1
Format settings, CABAC : Yes
Format settings, RefFrames : 1 frame
Format settings, GOP : M=1, N=60
Codec ID : V_MPEG4/ISO/AVC
Duration : 52 min 57 s
Bit rate mode : Variable
Bit rate : 1 716 kb/s
Maximum bit rate : 40.0 Mb/s
Width : 1 280 pixels
Height : 720 pixels
Display aspect ratio : 16:9
Frame rate mode : Constant
Frame rate : 25.000 FPS
Color space : YUV
Chroma subsampling : 4:2:0
Bit depth : 8 bits
Scan type : Progressive
Bits/(Pixel*Frame) : 0.074
Stream size : 650 MiB (90%)
Default : Yes
Forced : Yes

Audio
ID : 2
Format : AC-3
Format/Info : Audio Coding 3
Format settings, Endianness : Big
Codec ID : A_AC3
Duration : 52 min 57 s
Bit rate mode : Constant
Bit rate : 192 kb/s
Channel(s) : 2 channels
Channel positions : Front: L R
Sampling rate : 48.0 kHz
Frame rate : 31.250 FPS (1536 SPF)
Bit depth : 16 bits
Compression mode : Lossy
Stream size : 72.7 MiB (10%)
Language : Russian
Service kind : Complete Main
Default : Yes
Forced : Yes


Трекер:  [ 07-Янв-2019 02:59 ]

  

Скачать .torrent

Размер .torrent файла 11 KB


Размер: 7.7 GB
Хэш (hash) релиза: 1b72f17bd482d33de5d0856f894bbff5e7349a13
Подписка на обновления:

Еще никто не оставлял запись к записи скачать торрент Инквизитор Серии: 1-12 из 12 . Будь первым!

!Обратная связь
Top 5 Best Free Antivirus For Android Phones and Tablets | selecionar a marca | 鈴村あいり